Dont Miss To Get Latest Movies and Tv Show Direct In Your Inbox Enter your email address:  

Khakhi Aur Khiladi (Kaththi) 2019 Hindi Dubbed Movie HDRip 720p

May 14, 2019 Hindi Dubbed
Download Here                   Watch Now

Khaki Aur Khiladi (Kaththi) 2019 Hindi Dubbed Movie HDRip 720p.mp4

IMDB Link

General
Complete name : Khakhi Aur Khiladi (Kaththi) 2019 Hindi Dubbed Movie HDRip.mp4
Format : MPEG-4
Format profile : Base Media / Version 2
Codec ID : mp42 (mp42)
File size : 761 MiB
Duration : 2 h 31 min
Overall bit rate mode : Constant
Overall bit rate : 702 kb/s
Codirector : codirector
Production studio : studio

Video
Format : MPEG-4 Visual
Format settings, BVOP : Yes
Format settings, QPel : No
Format settings, GMC : No warppoints
Format settings, Matrix : Default (H.263)
Codec ID : 20
Duration : 2 h 31 min
Bit rate mode : Constant
Bit rate : 512 kb/s
Width : 720 pixels
Height : 300 pixels
Display aspect ratio : 2.40:1
Frame rate mode : Constant
Frame rate : 25.000 FPS
Color space : YUV
Bit depth : 8 bits
Scan type : Progressive
Compression mode : Lossy
Bits/(Pixel*Frame) : 0.095
Stream size : 555 MiB (73%)

Audio
Format : AAC
Format/Info : Advanced Audio Codec
Format profile : LC
Codec ID : 40
Duration : 2 h 31 min
Bit rate mode : Constant
Bit rate : 185 kb/s
Channel(s) : 2 channels
Channel positions : Front: L R
Sampling rate : 44.1 kHz
Frame rate : 43.066 FPS (1024 SPF)
Compression mode : Lossy
Stream size : 201 MiB (26%)
Title : Stereo
Language : English








indishare Link

TheFilesLocker Link

MegaUp Link

OpenLoad Link

ClicknupLoad Link

BDupload Link

UpPom Link

UploadBuzz Link

Download Here                   Watch Now

Comments

%d bloggers like this: